Welcome 2 Karachi 2015 Hindi HDTVRip 720p x264 DD.2.0 Exclusive Download, Two men from India land in Karachi, Pakistan, without their passports. They get trapped by the Taliban and desperately try to find a way to get back to India.

Welcome 2 Karachi 2015 Download

Welcome 2 Karachi 2015 Download, watch for free!

Movie information:

Format : Matroska
Format version : Version 4 / Version 2
File size : 2.00 GiB
Duration : 2 h 1 min
Overall bit rate : 2 349 kb/s

Video
Format : AVC
Format/Info : Advanced Video Codec
Format profile : High@L4.1
Format settings, CABAC : Yes
Format settings, ReFrames : 12 frames
Codec ID : V_MPEG4/ISO/AVC
Duration : 2 h 1 min
Bit rate : 2 153 kb/s
Width : 1 280 pixels
Height : 544 pixels
Display aspect ratio : 2.35:1
Frame rate mode : Constant
Frame rate : 23.976 (24000/1001) FPS
Color space : YUV
Chroma subsampling : 4:2:0
Bit depth : 8 bits
Scan type : Progressive
Bits/(Pixel*Frame) : 0.129
Stream size : 1.83 GiB (92%)

Audio
Format : AAC
Format/Info : Advanced Audio Codec
Format profile : LC
Codec ID : A_AAC
Duration : 2 h 1 min
Bit rate : 192 kb/s
Channel(s) : 2 channels
Channel positions : Front: L R
Sampling rate : 44.1 kHz
Frame rate : 43.066 FPS (1024 spf)
Compression mode : Lossy
Stream size : 169 MiB (8%)
Language : Hindi
Default : Yes
Forced : No
Full movie info: IMDb

Always check movie information, before download.
download button